<?xml version="1.0" standalone="no"?>
<!DOCTYPE svg PUBLIC "-//W3C//DTD SVG 1.1//EN" "http://www.w3.org/Graphics/SVG/1.1/DTD/svg11.dtd" >
<!--
2013-9-30: Created.
-->
<svg>
<metadata>
Created by iconfont
</metadata>
<defs>

<font id="iconfont" horiz-adv-x="1024" >
  <font-face
    font-family="iconfont"
    font-weight="500"
    font-stretch="normal"
    units-per-em="1024"
    ascent="896"
    descent="-128"
  />
    <missing-glyph />
    
    <glyph glyph-name="top10" unicode="&#58916;" d="M774.99787947 857.39618347L249.00212053 857.39618347c-58.1227008 0-104.67303573-47.0764512-104.67303573-105.199152l-0.52611627-841.59321387L512 68.40254506999997l368.19703147-157.79872747L880.19703147 752.19703147C880.19703147 810.31973227 833.119488 857.39618347 774.99787947 857.39618347z"  horiz-adv-x="1024" />

    
    <glyph glyph-name="yin" unicode="&#58973;" d="M832 385.792H704c0 106.048 85.952 192 192 192 35.328 0 64 28.608 64 64 0 35.328-28.672 64-64 64-176.704 0-320-143.296-320-320v-256c0-70.72 57.344-128 128-128h128c70.656 0 128 57.28 128 128v128c0 70.72-57.344 128-128 128z m-448 192c35.328 0 64 28.608 64 64 0 35.328-28.672 64-64 64-176.704 0-320-143.296-320-320v-256c0-70.72 57.28-128 128-128h128c70.72 0 128 57.28 128 128v128c0 70.72-57.28 128-128 128H192c0 106.048 85.952 192 192 192z"  horiz-adv-x="1024" />

    
    <glyph glyph-name="time" unicode="&#58886;" d="M850.01416016 689.27929688h-46.93359375v-78.74560547a19.78857422 19.78857422 0 0 0-19.24804688-15.22705079H634.84472656a19.81494141 19.81494141 0 0 0-19.70947265 17.78466797V689.27929688H427.29541016v-74.15771485c0-10.94238281-8.87255859-19.80175781-19.80175782-19.80175781H258.50585937a19.80175781 19.80175781 0 0 0-19.03710937 14.38330078V689.27929688h-46.93359375a46.93359375 46.93359375 0 0 1-46.93359375-46.93359376v-610.55859375a46.93359375 46.93359375 0 0 1 46.93359375-46.93359375h657.59765625a46.93359375 46.93359375 0 0 1 46.93359375 46.93359375V642.22705078a47.13134766 47.13134766 0 0 1-47.05224609 47.05224609zM380.375 172.58789062000005h-93.97265625v93.97265626h93.97265625v-93.97265625z m0 187.94531251h-93.97265625v93.97265624h93.97265625v-93.97265625z m187.83984375-187.94531251h-93.97265625v93.97265626h93.97265625v-93.97265625z m0 187.94531251h-93.97265625v93.97265624h93.97265625v-93.97265625z m187.82666016-187.94531251h-93.97265625v93.97265626h93.97265625v-93.97265625z m0 187.94531251h-93.97265625v93.97265624h93.97265625v-93.97265625zM306.20410156 642.22705078h54.35595703c10.94238281 0 19.80175781 8.87255859 19.80175782 19.80175781V763.33154297c0 10.94238281-8.87255859 19.80175781-19.80175782 19.80175781H306.20410156c-10.94238281 0-19.80175781-8.87255859-19.80175781-19.80175781v-101.28955078c0-10.94238281 8.859375-19.81494141 19.80175781-19.81494141zM681.55419922 642.22705078h54.35595703c10.94238281 0 19.80175781 8.87255859 19.80175781 19.80175781V763.33154297c0 10.94238281-8.87255859 19.80175781-19.80175781 19.80175781h-54.35595703c-10.94238281 0-19.80175781-8.87255859-19.80175781-19.80175781v-101.28955078c0-10.94238281 8.859375-19.81494141 19.80175781-19.81494141z"  horiz-adv-x="1024" />

    
    <glyph glyph-name="love" unicode="&#58894;" d="M510.93504-3.3996799999999894c-28.2624 0-56.77056 12.36992-84.91008 40.26368l-312.27904 312.9344C76.34944 396.0832 40.96 439.78752 40.96 524.5747200000001c0 137.05216 112.51712 248.38144 250.6752 248.38144 52.0192 0 101.90848-15.68768 144.1792-45.21984 14.1312-9.8304 17.53088-29.24544 7.5776-43.25376a31.49824 31.49824 0 0 0-43.6224-7.49568 187.35104 187.35104 0 0 1-108.1344 33.87392c-103.79264 0-188.0064-83.64032-188.0064-186.28608 0-59.5968 19.8656-87.4496 57.9584-134.51264l309.08416-309.32992c15.68768-15.52384 28.30336-21.7088 40.42752-21.87264 12.4928-0.16384 24.45312 6.02112 40.59136 22.03648l310.14912 310.4768c25.3952 27.36128 56.77056 73.60512 56.77056 133.36576 0 102.8096-84.3776 186.28608-188.0064 186.28608-46.98112 0-92.16-17.36704-126.85312-48.7424l-90.27584-89.25184a31.41632 31.41632 0 0 0-44.27776 0 30.72 30.72 0 0 0 0 43.90912l91.25888 90.23488A252.23168 252.23168 0 0 0 730.60352 773.12c138.28096 0 250.6752-111.49312 250.6752-248.38144 0-79.95392-40.26368-140.04224-74.1376-176.25088l-311.13216-311.45984c-28.2624-28.0576-56.60672-40.42752-85.07392-40.42752zM508.43648 601.62048S436.224 873.39008 174.20288 711.6800000000001c-187.10528-161.71008 0-393.0112 0-393.0112L450.56 56.32000000000005s10.60864-80.85504 122.88 0 311.95136 302.77632 311.95136 302.77632 149.7088 161.66912-37.43744 323.3792c-187.14624 161.71008-339.5584-80.85504-339.5584-80.85504z"  horiz-adv-x="1024" />

    
    <glyph glyph-name="totop" unicode="&#58891;" d="M661.845333 670.321778c32.184889-72.391111 48.270222-148.835556 45.255111-230.286222 0-6.044444 2.005333-10.055111 7.04-15.089778 15.075556-13.084444 31.175111-25.144889 46.264889-38.215111 36.195556-30.165333 52.280889-68.380444 44.231111-114.645334-9.045333-49.28-19.100444-97.550222-29.155555-147.825777-7.04-31.175111-40.220444-42.24-65.365333-23.139556-27.164444 23.139556-54.300444 46.264889-82.460445 70.4-14.08 12.060444-14.08 12.060444-27.164444 0.995556-37.205333-29.155556-78.435556-38.200889-124.700445-28.16-23.125333 5.034667-43.235556 17.109333-62.350222 32.184888-5.020444 5.034667-9.045333 3.029333-14.08 0-27.150222-25.130667-56.32-50.275556-84.48-74.410666-24.120889-20.110222-58.311111-8.049778-65.351111 23.125333a1287.025778 1287.025778 0 0 0-14.08 66.375111c-5.034667 23.139556-11.064889 47.274667-16.099556 70.4-9.045333 43.235556 0.995556 81.450667 31.175111 113.635556 18.104889 18.104889 39.224889 33.194667 58.325334 48.270222 3.029333 3.015111 6.044444 6.044444 5.034666 11.064889-5.034667 87.495111 15.075556 169.955556 52.295112 249.400889 21.12 45.255111 47.260444 85.475556 78.435555 124.714666 18.104889 20.110222 35.2 37.205333 56.32 52.280889 11.064889 7.04 12.074667 8.049778 22.129778 0 10.055111-8.035556 21.12-15.075556 30.165333-26.140444 46.264889-48.270222 81.464889-103.580444 108.615111-164.935111zM570.311111 619.0364440000001c-31.175111 31.175111-83.470222 33.194667-114.631111 2.019556-33.194667-31.175111-36.209778-82.474667-2.019556-118.670222 29.155556-31.175111 84.48-30.179556 114.631112 0 33.194667 31.175111 33.194667 83.470222 2.019555 116.650666zM429.539556 100.12444400000004c42.24-20.124444 86.471111-24.149333 131.740444-11.064888 10.055111 2.005333 19.100444 7.04 29.155556 11.050666 17.109333 9.059556 31.175111-0.995556 32.184888-20.110222 0-28.16 0-84.48-0.995555-111.630222 0-10.055111-3.029333-17.095111-12.088889-20.110222-8.035556-4.024889-17.080889-3.015111-24.120889 4.024888l-13.084444 13.084445c-8.035556 8.035556-8.035556 8.035556-12.060445-2.019556-10.055111-20.110222-21.12-41.244444-31.175111-61.354666-3.015111-7.025778-7.04-11.050667-14.08-14.08-11.064889-3.015111-19.100444 1.009778-24.135111 12.088889-11.064889 21.105778-20.110222 42.225778-31.175111 63.345777-5.034667 9.045333-5.034667 9.045333-12.060445 2.005334l-13.084444-13.070223c-7.04-7.04-14.08-8.049778-24.135111-4.024888-9.045333 3.015111-14.08 10.055111-13.070222 19.114666v114.631111c0 6.044444 2.005333 10.069333 6.030222 14.08 8.049778 8.049778 15.075556 9.059556 26.154667 4.024889z"  horiz-adv-x="1024" />

    
    <glyph glyph-name="qzone" unicode="&#59559;" d="M383.37467733 560.61952l135.76874667 275.07643733 135.76874667-275.07643733 303.562752-44.105728-219.676672-214.08426667 51.838976-302.36125866-271.49380267 142.75925333-271.49380267-142.75925333 51.838976 302.36125866-219.65482666 214.08426667zM338.944 304.00512000000003c18.90304 21.4016 262.144 158.80192 262.144 158.80192L283.50464 505.6512l424.73472 5.03808s15.11424-12.5952 0-30.24896c-15.11424-17.63328-240.72192-172.66688-240.72192-172.66688l257.41312-25.76384-385.98656-17.1008s-18.90304 17.67424 0 39.09632z"  horiz-adv-x="1024" />

    
    <glyph glyph-name="pen" unicode="&#58919;" d="M347.55036272 257.40297154999996l36.78222656-36.87953405 88.54980469 32.30608259-93.0746024 92.92864119zM511.85631942 766.86083222a382.76504516 382.76504516 0 1 1 0-765.57798386 382.76504516 382.76504516 0 0 1 0 765.57798386z m-19.15740966-531.18707658l-0.23946762 0.23946762a11.63812637 11.63812637 0 0 0-3.54412077-2.20310211L312.57136535 169.43701172a12.45231628 12.45231628 0 0 0-13.17071914 3.01729202 12.40442275 12.40442275 0 0 0-2.87361145 13.12282563l64.22521592 176.24816894a11.59023285 11.59023285 0 0 0 2.15520858 3.54412079l-0.14368057 0.19157409L521.09976959 523.8011970499999l31.32236481-31.22657776-124.04422761-123.8526535a9.67449188 9.67449188 0 0 1-2.87361144-7.08824158c0-2.5862503 0.86208343-5.12460709 2.87361146-7.08824156a10.1055336 10.1055336 0 0 1 14.27227019 0l123.99633408 123.75686645 38.93743514-38.88954163-123.42161178-123.27793122a10.1055336 10.1055336 0 0 1 0-14.22437668 10.24921418 10.24921418 0 0 1 14.2722702 0l123.37371826 123.27793121 31.13079072-31.22657776-158.24020386-158.28809738z m221.98648453 221.89069748L665.25927734 408.18622971l-129.88723755 129.79145049 49.47401048 49.42611695a45.64252853 45.64252853 0 0 0 64.41679 0l65.42255402-65.47044754c17.72060394-17.72060394 17.67271042-46.60039902 0-64.36889648z"  horiz-adv-x="1024" />

    
    <glyph glyph-name="comment" unicode="&#58909;" d="M861.6006556 574.69126695c21.18791862-37.07885742 31.78187758-74.15771484 31.78187757-116.53355211 0-74.15771484-37.07885742-148.31542969-105.93959242-206.58220573-63.56375589-52.96979621-153.61240953-84.75167379-248.95804228-90.04865364-10.59395896 0-15.8909388-5.29697984-26.48489847-10.59395895s-37.07885742-31.78187758-63.56375589-52.96979694c-37.07885742-26.48489846-52.96979621-31.78187758-63.56375518-31.78187758h-5.29697983c-15.8909388 5.29697984-26.48489846 15.8909388-31.78187759 42.37583726v52.96979621c0 15.8909388-10.59395896 31.78187758-21.18791862 42.37583726-52.96979621 26.48489846-100.64261332 63.56375589-132.42449089 105.93959243-37.07885742 47.67281638-52.96979621 100.64261332-52.96979622 148.31542968 0 42.37583726 10.59395896 79.45469468 31.78187758 116.53355211 21.18791862 37.07885742 47.67281638 68.860735 79.45469469 95.34563348C321.30873305 723.00669664 416.65436653 754.78857422 517.29697984 754.78857422s190.69126695-31.78187758 264.84898107-84.75167379c31.78187758-26.48489846 58.26677605-58.26677605 79.45469469-95.34563348zM353.09061136 384c31.78187758 0 52.96979621 21.18791862 52.96979622 52.96979621s-21.18791862 52.96979621-52.96979622 52.96979622-52.96979621-21.18791862-52.96979693-52.96979622 21.18791862-52.96979621 52.96979693-52.96979621z m158.90938864 0c31.78187758 0 52.96979621 21.18791862 52.96979621 52.96979621s-21.18791862 52.96979621-52.96979621 52.96979622-52.96979621-21.18791862-52.96979621-52.96979622 21.18791862-52.96979621 52.96979621-52.96979621z m158.90938864 0c31.78187758 0 52.96979621 21.18791862 52.96979693 52.96979621s-21.18791862 52.96979621-52.96979693 52.96979622-52.96979621-21.18791862-52.96979622-52.96979622 21.18791862-52.96979621 52.96979622-52.96979621zM930.46139059 399.8909388c-15.8909388-63.56375589-52.96979621-121.83053122-111.23657226-169.50334832-68.860735-52.96979621-153.61240953-90.04865363-248.95804228-100.6426126 42.37583726-31.78187758 95.34563347-47.67281638 153.61240953-52.96979621 5.29697984 0 5.29697984 0 10.59395895-5.29697985s26.48489846-21.18791862 42.37583725-31.78187758c21.18791862-15.8909388 37.07885742-21.18791862 47.67281639-21.18791862h5.29697983c10.59395896 0 21.18791862 10.59395896 26.48489775 37.07885742v31.78187758c0 5.29697984 5.29697984 15.8909388 10.59395967 15.8909388 37.07885742 15.8909388 63.56375589 42.37583726 84.7516738 68.860735 21.18791862 31.78187758 31.78187758 63.56375589 31.7818783 100.64261331 5.29697984 47.67281638-15.8909388 90.04865363-52.96979693 127.12751107z"  horiz-adv-x="1170" />

    
    <glyph glyph-name="view" unicode="&#59374;" d="M1004.311166 379.15681801000005c-53.828188 66.291762-115.062268 124.81637-185.147292 173.406244-90.677015 62.859764-189.301817 105.488799-300.751456 110.36585-50.938084-2.167578-100.431117-7.947786-148.117833-24.746517-139.447522-48.951138-249.090845-138.905627-343.741754-249.452107-28.539778-33.236197-28.720409-52.202505 0.180632-85.799965 66.111131-77.310284 139.989416-146.130887 229.221379-196.527077C359.456694 47.69800700999997 468.738755 11.932969009999965 589.4006 37.221379009999964c176.838243 36.848827 306.351032 145.588993 418.523196 279.61757 17.521256 20.953255 12.824837 42.087141-3.61263 62.317869zM495.110954 148.85164900999996c-108.559534-0.180632-202.84918 93.567119-203.210442 202.126654-0.541895 114.881637 91.21891 208.087493 205.558652 208.810019 113.255953 0.722526 203.932969-89.412595 203.752337-202.487916-0.361263-115.062268-92.48333-208.268125-206.100547-208.448757zM498.01805384 498.47542261c-71.90714788-0.70497268-129.24487519-59.92262411-129.2448739-133.239716 0-77.07694406 58.27768869-135.11964145 135.35463277-134.4146701 74.96202732 0.70497268 130.88980931 56.39776333 130.65481799 130.18483794-0.46998135 80.13182216-58.27768869 138.40951089-136.76457686 137.46954816z"  horiz-adv-x="1024" />

    
    <glyph glyph-name="collect" unicode="&#59128;" d="M386 392.1l-21.6-126.9c-1.8-8.1 1.8-17.1 9-21.6 7.2-5.4 16.2-5.4 23.4-1.8l113.4 59.4 113.4-59.4c3.6-1.8 6.3-2.7 9.9-2.7 4.5 0 9 1.8 12.6 4.5 7.2 4.5 9.9 13.5 9 21.6l-21.6 126.9 91.8 90c6.3 6.3 8.1 14.4 5.4 22.5-2.7 8.1-9.9 13.5-18 15.3l-126.9 18.9L530 653.1c-7.2 15.3-32.4 15.3-39.6 0l-56.7-115.2L306.8 519c-8.1-0.9-15.3-7.2-18-15.3-2.7-8.1 0-17.1 5.4-22.5L386 392.1zM71 824.1V33c0-12.6 2.7-26.1 9-37.8 9.9-21.6 27.9-36.9 50.4-45 9.9-3.6 19.8-5.4 29.7-5.4 12.6 0 26.1 2.7 37.8 9L515.6 105 827-45.299999999999955c11.7-5.4 25.2-9 38.7-9 48.6 0 88.2 39.6 88.2 88.2V824.1H71zM882.8 33c0-12.6-13.5-21.6-25.2-16.2l-342 164.7-349.2-164.7c-5.4-2.7-10.8-1.8-13.5-0.9-2.7 0.9-7.2 3.6-9.9 9-0.9 2.7-1.8 5.4-1.8 7.2V753h740.7v-720z"  horiz-adv-x="1024" />

    
    <glyph glyph-name="menu" unicode="&#59050;" d="M84.329412 727.341176m-72.282353 0a72.282353 72.282353 0 1 1 144.564706 0 72.282353 72.282353 0 1 1-144.564706 0ZM939.670588 655.058824H349.364706c-39.152941 0-72.282353 33.129412-72.282353 72.282352 0 39.152941 33.129412 72.282353 72.282353 72.282353h590.305882c39.152941 0 72.282353-33.129412 72.282353-72.282353 0-39.152941-33.129412-72.282353-72.282353-72.282352zM84.329412 384m-72.282353 0a72.282353 72.282353 0 1 1 144.564706 0 72.282353 72.282353 0 1 1-144.564706 0ZM939.670588 314.729412H349.364706c-39.152941 0-72.282353 33.129412-72.282353 72.282353 0 39.152941 33.129412 72.282353 72.282353 72.282353h590.305882c39.152941 0 72.282353-33.129412 72.282353-72.282353 0-42.164706-33.129412-72.282353-72.282353-72.282353zM84.329412 40.65882399999998m-72.282353 0a72.282353 72.282353 0 1 1 144.564706 0 72.282353 72.282353 0 1 1-144.564706 0ZM939.670588-31.623528999999962H349.364706c-39.152941 0-72.282353 33.129412-72.282353 72.282353 0 39.152941 33.129412 72.282353 72.282353 72.282352h590.305882c39.152941 0 72.282353-33.129412 72.282353-72.282352 0-39.152941-33.129412-72.282353-72.282353-72.282353z"  horiz-adv-x="1024" />

    
    <glyph glyph-name="search" unicode="&#58932;" d="M481.88935906-31.737739690000012a447.8483325 447.8483325 0 1 0 316.01132344 132.49950656 446.5233375 446.5233375 0 0 0-316.01132344-132.49950656z m0 794.99703938a347.14870687 347.14870687 0 1 1 245.78658469-101.36212219A345.82371188 345.82371188 0 0 1 481.88935906 763.25929969zM926.42520406-95.33750250000003a66.24975375 66.24975375 0 0 0-46.37482781 19.21242844l-117.26206312 117.26206312a66.24975375 66.24975375 0 0 0 93.41215218 93.41215219l117.26206313-117.26206312a66.24975375 66.24975375 0 0 0 0-93.41215219 66.24975375 66.24975375 0 0 0-47.03732438-19.21242844z"  horiz-adv-x="1026" />

    
    <glyph glyph-name="tag" unicode="&#59502;" d="M938 437.2l-29.6 312.6c-1.5 16.2-14.4 29-30.6 30.6L565.2 810h-0.4c-3.2 0-5.7-1-7.6-2.9L88.9 338.79999999999995c-3.9-3.9-3.9-10.2 0-14.1l363.8-363.8c1.9-1.9 4.4-2.9 7.1-2.9s5.2 1 7.1 2.9l468.3 468.3c2 2.1 3 5 2.8 8zM699 509c-35.3 0-64 28.7-64 64s28.7 64 64 64 64-28.7 64-64-28.7-64-64-64z"  horiz-adv-x="1024" />

    
    <glyph glyph-name="qq" unicode="&#59522;" d="M824.8 282.79999999999995c-16 51.4-34.4 94.6-62.7 165.3C766.5 633.8 689.3 784 511.5 784 331.7 784 256.2 630.8 261 448.1c-28.4-70.8-46.7-113.7-62.7-165.3-34-109.5-23-154.8-14.6-155.8 18-2.2 70.1 82.4 70.1 82.4 0-49 25.2-112.9 79.8-159-26.4-8.1-85.7-29.9-71.6-53.8 11.4-19.3 196.2-12.3 249.5-6.3 53.3-6 238.1-13 249.5 6.3 14.1 23.8-45.3 45.7-71.6 53.8 54.6 46.2 79.8 110.1 79.8 159 0 0 52.1-84.6 70.1-82.4 8.5 1.1 19.5 46.4-14.5 155.8z"  horiz-adv-x="1024" />

    
    <glyph glyph-name="weibo" unicode="&#59523;" d="M457.3 353c-68.1 17.7-145-16.2-174.6-76.2-30.1-61.2-1-129.1 67.8-151.3 71.2-23 155.2 12.2 184.4 78.3 28.7 64.6-7.2 131-77.6 149.2z m-52-156.2c-13.8-22.1-43.5-31.7-65.8-21.6-22 10-28.5 35.7-14.6 57.2 13.7 21.4 42.3 31 64.4 21.7 22.4-9.5 29.6-35 16-57.3z m45.5 58.5c-5-8.6-16.1-12.7-24.7-9.1-8.5 3.5-11.2 13.1-6.4 21.5 5 8.4 15.6 12.4 24.1 9.1 8.7-3.2 11.8-12.9 7-21.5zM785.3 452.5c15-4.8 31 3.4 35.9 18.3 11.8 36.6 4.4 78.4-23.2 109-27.6 30.6-68.4 42.3-106 34.3-15.4-3.3-25.2-18.4-21.9-33.8 3.3-15.3 18.4-25.2 33.8-21.8 18.4 3.9 38.3-1.8 51.9-16.7 13.5-15 17.2-35.4 11.3-53.3-4.9-15.1 3.2-31.1 18.2-36zM885.1 658.5c-56.7 62.9-140.4 86.9-217.7 70.5-17.9-3.8-29.3-21.4-25.4-39.3 3.8-17.9 21.4-29.3 39.3-25.5 55 11.7 114.4-5.4 154.8-50.1 40.3-44.7 51.2-105.7 34-159.1-5.6-17.4 3.9-36 21.3-41.7 17.4-5.6 36 3.9 41.6 21.2v0.1c24.1 75.4 8.9 161.1-47.9 223.9zM729 397c-12.2 3.6-20.5 6.1-14.1 22.1 13.8 34.7 15.2 64.7 0.3 86-28 40.1-104.8 37.9-192.8 1.1 0 0-27.6-12.1-20.6 9.8 13.5 43.5 11.5 79.9-9.6 101-47.7 47.8-174.6-1.8-283.5-110.6C127.3 424.9 80 338.5 80 263.79999999999995 80 120.89999999999998 263.2 34 442.5 34c235 0 391.3 136.5 391.3 245 0 65.5-55.2 102.6-104.8 118zM443 85.20000000000005c-143-14.1-266.5 50.5-275.8 144.5-9.3 93.9 99.2 181.5 242.2 195.6 143 14.2 266.5-50.5 275.8-144.4C694.4 187 586 99.39999999999998 443 85.20000000000005z"  horiz-adv-x="1024" />

    
    <glyph glyph-name="wechat" unicode="&#59524;" d="M690.1 518.6c5.9 0 11.8-0.2 17.6-0.5-24.4 128.7-158.3 227.1-319.9 227.1C209 745.2 64 624.6 64 475.8c0-81.1 43.6-154.2 111.9-203.6 5.5-3.9 9.1-10.3 9.1-17.6 0-2.4-0.5-4.6-1.1-6.9-5.5-20.3-14.2-52.8-14.6-54.3-0.7-2.6-1.7-5.2-1.7-7.9 0-5.9 4.8-10.8 10.8-10.8 2.3 0 4.2 0.9 6.2 2l70.9 40.9c5.3 3.1 11 5 17.2 5 3.2 0 6.4-0.5 9.5-1.4 33.1-9.5 68.8-14.8 105.7-14.8 6 0 11.9 0.1 17.8 0.4-7.1 21-10.9 43.1-10.9 66 0 135.8 132.2 245.8 295.3 245.8z m-194.3 86.5c23.8 0 43.2-19.3 43.2-43.1s-19.3-43.1-43.2-43.1c-23.8 0-43.2 19.3-43.2 43.1s19.4 43.1 43.2 43.1z m-215.9-86.2c-23.8 0-43.2 19.3-43.2 43.1s19.3 43.1 43.2 43.1 43.2-19.3 43.2-43.1-19.4-43.1-43.2-43.1zM866.7 103.29999999999995c56.9 41.2 93.2 102 93.2 169.7 0 124-120.8 224.5-269.9 224.5-149 0-269.9-100.5-269.9-224.5S540.9 48.5 690 48.5c30.8 0 60.6 4.4 88.1 12.3 2.6 0.8 5.2 1.2 7.9 1.2 5.2 0 9.9-1.6 14.3-4.1l59.1-34c1.7-1 3.3-1.7 5.2-1.7 2.4 0 4.7 0.9 6.4 2.6 1.7 1.7 2.6 4 2.6 6.4 0 2.2-0.9 4.4-1.4 6.6-0.3 1.2-7.6 28.3-12.2 45.3-0.5 1.9-0.9 3.8-0.9 5.7 0.1 5.9 3.1 11.2 7.6 14.5zM600.2 308.79999999999995c-19.9 0-36 16.1-36 35.9 0 19.8 16.1 35.9 36 35.9s36-16.1 36-35.9c0-19.8-16.2-35.9-36-35.9z m179.9 0c-19.9 0-36 16.1-36 35.9 0 19.8 16.1 35.9 36 35.9s36-16.1 36-35.9c-0.1-19.8-16.2-35.9-36-35.9z"  horiz-adv-x="1024" />

    
    <glyph glyph-name="phone" unicode="&#58895;" d="M813.00645125-8.763870939999947l-602.13677344-0.30967781v174.84387094H813.00645125v-174.53419313zM210.86967781 777.10451625v-0.30967781l602.13677344 0.30967781V253.00645125000005H210.86967781V777.10451625zM813.00645125 864H210.99354875C163.5509675 864 125.12 825.1974196900001 124.90322563 777.10451625v-786.2090325C124.90322563-56.98064531 163.45806406-96 210.99354875-96h602.0129025c47.44258031 0 85.87354875 38.80258031 86.09032312 86.89548375V777.10451625C899.00387094 825.1974196900001 860.4490325 864 813.00645125 864zM461.03225813 27.870967500000006h92.90322562c25.70322563 0 46.45161281 20.74838719 46.45161282 46.45161281s-20.74838719 46.45161281-46.45161282 46.45161281h-92.90322562c-25.70322563 0-46.45161281-20.74838719-46.45161281-46.45161281s20.74838719-46.45161281 46.45161281-46.45161281z"  horiz-adv-x="1024" />

    
    <glyph glyph-name="close" unicode="&#58928;" d="M144.5-36c-13.40625 0-26.90625 5.15625-37.125 15.375-20.53125 20.53125-20.53125 53.71875 0 74.25l735 735c20.53125 20.53125 53.71875 20.53125 74.25 0s20.53125-53.71875 0-74.25l-735-735C171.40625-30.84375 157.90625-36 144.5-36zM879.5-36c-13.40625 0-26.90625 5.15625-37.125 15.375l-735 735c-20.53125 20.53125-20.53125 53.71875 0 74.25s53.71875 20.53125 74.25 0l735-735c20.53125-20.53125 20.53125-53.71875 0-74.25-10.21875-10.21875-23.71875-15.375-37.125-15.375z"  horiz-adv-x="1024" />

    
    <glyph glyph-name="dot" unicode="&#62092;" d="M512 580.67267814c108.6931223 0 196.67267814-87.96283867 196.67267814-196.67267814 0-108.6931223-87.96283867-196.67267814-196.67267814-196.67267814-108.6931223 0-196.67267814 87.96283867-196.67267814 196.67267814 0 108.6931223 87.96283867 196.67267814 196.67267814 196.67267814m0 47.20144276C377.31166646 627.87412089 268.12587911 518.68833354 268.12587911 384s109.18578735-243.87412089 243.87412089-243.87412089 243.87412089 109.18578735 243.87412089 243.87412089S646.68833354 627.87412089 512 627.87412089z m0-165.20504964c-43.4479447 0-78.66907126-35.22112657-78.66907126-78.66907126s35.22112657-78.66907126 78.66907126-78.66907126 78.66907126 35.22112657 78.66907126 78.66907126-35.22112657 78.66907126-78.66907126 78.66907126z"  horiz-adv-x="1024" />

    
    <glyph glyph-name="qr" unicode="&#58913;" d="M455.75 805.875H118.25c-15.5625 0-28.125-12.5625-28.125-28.125v-337.5c0-15.5625 12.5625-28.125 28.125-28.125h337.5c15.5625 0 28.125 12.5625 28.125 28.125V777.75c0 15.5625-12.5625 28.125-28.125 28.125z m-56.25-281.25c0-15.5625-12.5625-28.125-28.125-28.125H202.625c-15.5625 0-28.125 12.5625-28.125 28.125V693.375c0 15.5625 12.5625 28.125 28.125 28.125h168.75c15.5625 0 28.125-12.5625 28.125-28.125v-168.75zM315.125 665.25h-56.25c-15.5625 0-28.125-12.5625-28.125-28.125v-56.25c0-15.5625 12.5625-28.125 28.125-28.125h56.25c15.5625 0 28.125 12.5625 28.125 28.125v56.25c0 15.5625-12.5625 28.125-28.125 28.125zM905.75 805.875H568.25c-15.5625 0-28.125-12.5625-28.125-28.125v-337.5c0-15.5625 12.5625-28.125 28.125-28.125h337.5c15.5625 0 28.125 12.5625 28.125 28.125V777.75c0 15.5625-12.5625 28.125-28.125 28.125z m-56.25-281.25c0-15.5625-12.5625-28.125-28.125-28.125H652.625c-15.5625 0-28.125 12.5625-28.125 28.125V693.375c0 15.5625 12.5625 28.125 28.125 28.125h168.75c15.5625 0 28.125-12.5625 28.125-28.125v-168.75zM765.125 665.25h-56.25c-15.5625 0-28.125-12.5625-28.125-28.125v-56.25c0-15.5625 12.5625-28.125 28.125-28.125h56.25c15.5625 0 28.125 12.5625 28.125 28.125v56.25c0 15.5625-12.5625 28.125-28.125 28.125zM455.75 355.875H118.25c-15.5625 0-28.125-12.5625-28.125-28.125v-337.5c0-15.5625 12.5625-28.125 28.125-28.125h337.5c15.5625 0 28.125 12.5625 28.125 28.125V327.75c0 15.5625-12.5625 28.125-28.125 28.125z m-56.25-281.25c0-15.5625-12.5625-28.125-28.125-28.125H202.625c-15.5625 0-28.125 12.5625-28.125 28.125V243.375c0 15.5625 12.5625 28.125 28.125 28.125h168.75c15.5625 0 28.125-12.5625 28.125-28.125v-168.75zM315.125 215.25h-56.25c-15.5625 0-28.125-12.5625-28.125-28.125v-56.25c0-15.5625 12.5625-28.125 28.125-28.125h56.25c15.5625 0 28.125 12.5625 28.125 28.125v56.25c0 15.5625-12.5625 28.125-28.125 28.125zM568.25 243.375h56.25c15.46875 0 28.125 12.65625 28.125 28.125v56.25c0 15.46875-12.65625 28.125-28.125 28.125h-56.25c-15.46875 0-28.125-12.65625-28.125-28.125v-56.25c0-15.46875 12.65625-28.125 28.125-28.125zM624.5 74.625h-56.25c-15.46875 0-28.125-12.65625-28.125-28.125v-56.25c0-15.46875 12.65625-28.125 28.125-28.125h56.25c15.46875 0 28.125 12.65625 28.125 28.125v56.25c0 15.46875-12.65625 28.125-28.125 28.125zM905.75 355.875h-56.25c-15.46875 0-28.125-12.65625-28.125-28.125v-56.25c0-15.46875 12.65625-28.125 28.125-28.125h56.25c15.46875 0 28.125 12.65625 28.125 28.125v56.25c0 15.46875-12.65625 28.125-28.125 28.125zM905.75 187.125h-56.25c-15.46875 0-28.125-12.65625-28.125-28.125v-84.375h-84.375c-15.46875 0-28.125-12.65625-28.125-28.125v-56.25c0-15.46875 12.65625-28.125 28.125-28.125h168.75c15.46875 0 28.125 12.65625 28.125 28.125V159c0 15.46875-12.65625 28.125-28.125 28.125zM737 102.75V215.25c0 15.46875-12.65625 28.125-28.125 28.125h-56.25c-15.46875 0-28.125-12.65625-28.125-28.125v-112.5c0-15.46875 12.65625-28.125 28.125-28.125h56.25c15.46875 0 28.125 12.65625 28.125 28.125z"  horiz-adv-x="1024" />

    
    <glyph glyph-name="user" unicode="&#58993;" d="M128.85180664 779.5078125v-791.015625M141.21142578 779.5078125v-791.015625M153.57104492 779.5078125v-791.015625M165.93066406 779.5078125v-791.015625M178.2902832 779.5078125v-791.015625M190.64990234 779.5078125v-791.015625M203.00952148 779.5078125v-791.015625M215.36914062 779.5078125v-791.015625M227.72875977 779.5078125v-791.015625M240.08837891 779.5078125v-791.015625M252.44799805 779.5078125v-791.015625M264.80761719 779.5078125v-791.015625M277.16723633 779.5078125v-791.015625M289.52685547 779.5078125v-791.015625M301.88647461 779.5078125v-791.015625M314.24609375 779.5078125v-791.015625M326.60571289 779.5078125v-791.015625M338.96533203 779.5078125v-791.015625M351.32495117 779.5078125v-791.015625M363.68457031 779.5078125v-791.015625M376.04418945 779.5078125v-791.015625M388.40380859 779.5078125v-791.015625M400.76342773 779.5078125v-791.015625M413.12304687 779.5078125v-791.015625M425.48266602 779.5078125v-791.015625M437.84228516 779.5078125v-791.015625M450.2019043 779.5078125v-791.015625M462.56152344 779.5078125v-791.015625M474.92114258 779.5078125v-791.015625M487.28076172 779.5078125v-791.015625M499.64038086 779.5078125v-791.015625M512 779.5078125v-791.015625M524.35961914 779.5078125v-791.015625M536.71923828 779.5078125v-791.015625M549.07885742 779.5078125v-791.015625M561.43847656 779.5078125v-791.015625M573.7980957 779.5078125v-791.015625M586.15771484 779.5078125v-791.015625M598.51733398 779.5078125v-791.015625M610.87695313 779.5078125v-791.015625M623.23657227 779.5078125v-791.015625M635.59619141 779.5078125v-791.015625M647.95581055 779.5078125v-791.015625M660.31542969 779.5078125v-791.015625M672.67504883 779.5078125v-791.015625M685.03466797 779.5078125v-791.015625M697.39428711 779.5078125v-791.015625M709.75390625 779.5078125v-791.015625M722.11352539 779.5078125v-791.015625M734.47314453 779.5078125v-791.015625M746.83276367 779.5078125v-791.015625M759.19238281 779.5078125v-791.015625M771.55200195 779.5078125v-791.015625M783.91162109 779.5078125v-791.015625M796.27124023 779.5078125v-791.015625M808.63085938 779.5078125v-791.015625M820.99047852 779.5078125v-791.015625M833.35009766 779.5078125v-791.015625M845.7097168 779.5078125v-791.015625M858.06933594 779.5078125v-791.015625M870.42895508 779.5078125v-791.015625M882.78857422 779.5078125v-791.015625M895.14819336 779.5078125v-791.015625M116.4921875 767.14819336h791.015625M116.4921875 754.78857422h791.015625M116.4921875 742.42895508h791.015625M116.4921875 730.06933594h791.015625M116.4921875 717.7097168h791.015625M116.4921875 705.35009766h791.015625M116.4921875 692.99047852h791.015625M116.4921875 680.63085938h791.015625M116.4921875 668.27124023h791.015625M116.4921875 655.91162109h791.015625M116.4921875 643.55200195h791.015625M116.4921875 631.19238281h791.015625M116.4921875 618.8327636700001h791.015625M116.4921875 606.47314453h791.015625M116.4921875 594.11352539h791.015625M116.4921875 581.75390625h791.015625M116.4921875 569.39428711h791.015625M116.4921875 557.03466797h791.015625M116.4921875 544.6750488299999h791.015625M116.4921875 532.31542969h791.015625M116.4921875 519.95581055h791.015625M116.4921875 507.59619141h791.015625M116.4921875 495.23657227h791.015625M116.4921875 482.87695313h791.015625M116.4921875 470.51733398h791.015625M116.4921875 458.15771484h791.015625M116.4921875 445.7980957h791.015625M116.4921875 433.43847656h791.015625M116.4921875 421.07885742h791.015625M116.4921875 408.71923828h791.015625M116.4921875 396.35961914h791.015625M116.4921875 384h791.015625M116.4921875 371.64038086000005h791.015625M116.4921875 359.28076172h791.015625M116.4921875 346.92114258000004h791.015625M116.4921875 334.56152344h791.015625M116.4921875 322.2019043h791.015625M116.4921875 309.84228515999996h791.015625M116.4921875 297.48266602h791.015625M116.4921875 285.12304687000005h791.015625M116.4921875 272.76342773h791.015625M116.4921875 260.40380859000004h791.015625M116.4921875 248.04418944999998h791.015625M116.4921875 235.68457031000003h791.015625M116.4921875 223.32495116999996h791.015625M116.4921875 210.96533203h791.015625M116.4921875 198.60571288999995h791.015625M116.4921875 186.24609375h791.015625M116.4921875 173.88647461000005h791.015625M116.4921875 161.52685547h791.015625M116.4921875 149.16723633000004h791.015625M116.4921875 136.80761718999997h791.015625M116.4921875 124.44799805000002h791.015625M116.4921875 112.08837890999996h791.015625M116.4921875 99.72875977000001h791.015625M116.4921875 87.36914062000005h791.015625M116.4921875 75.00952147999999h791.015625M116.4921875 62.64990234000004h791.015625M116.4921875 50.290283199999976h791.015625M116.4921875 37.930664060000026h791.015625M116.4921875 25.571044919999963h791.015625M116.4921875 13.211425780000013h791.015625M116.4921875 0.8518066399999498h791.015625M907.5078125 103.84837531999995V67.59375c0-42.84693718-36.25462532-79.1015625-79.1015625-79.1015625H195.59375C152.74681282-11.5078125 116.4921875 24.746812819999946 116.4921875 67.59375v36.25462532C116.4921875 199.42917250999994 228.55299187 258.75534439 334.02148437 304.8984375l9.88769532 4.94384766c8.24000359 3.29615593 16.47923469 3.29615593 24.71923828-1.64769173C411.47535515 280.17919922 459.26536751 265.34765625 510.35230828 265.34765625S610.87695313 281.82689094 652.07619858 308.19459343000005c8.24000359 4.94384766 16.47923469 4.94384766 24.71923828 1.64769173l9.88769531-4.94384766c108.76464844-46.14232063 220.82545281-103.82080078 220.82545281-201.05006218zM512 779.5078125c108.76464844 0 196.10621453-97.2292614 196.10621453-217.52929688S620.76464844 344.44921875 512 344.44921875 315.89378547 441.67848015 315.89378547 561.97851563 403.23535156 779.5078125 512 779.5078125z"  horiz-adv-x="1024" />

    
    <glyph glyph-name="top" unicode="&#58918;" d="M780.52376322 250.50260556a26.15421453 26.15421453 0 0 1-6.71309407 17.29293032L535.20045314 534.9229755599999A32.00803257 32.00803257 0 0 1 511.35554294 545.18058329c-9.23721745 0-18.04479689-3.75933269-23.7912054-10.25760773l-237.37500669-265.99963988c-10.52613151-11.81504557-8.43164615-29.21538545 4.72601825-38.66742187a32.92101338 32.92101338 0 0 1 42.9638021 4.18897069L511.40924771 473.69955754l214.71160109-240.4361776a32.92101338 32.92101338 0 0 1 42.9638021-4.29638022A26.63755731 26.63755731 0 0 1 780.52376322 250.55631028000005z"  horiz-adv-x="1024" />

    
    <glyph glyph-name="down" unicode="&#59560;" d="M225.57465257 498.78040428a27.89782883 27.89782883 0 0 1 7.16063367-18.44579234L487.25284998 195.39867627A34.14190141 34.14190141 0 0 1 512.68742086 184.45722804000002c9.85303195 0 19.24778335 4.00995487 25.37728576 10.94144823l253.20000714 283.7329492c11.22787361 12.60271527 8.99375591 31.16307781-5.04108612 41.24525001a35.11574761 35.11574761 0 0 1-45.82805559-4.46823541L512.63013578 260.70365549999997l-229.02570783 256.46525613a35.11574761 35.11574761 0 0 1-45.82805559 4.58280553A28.41339446 28.41339446 0 0 1 225.57465257 498.72311923z"  horiz-adv-x="1024" />

    
    <glyph glyph-name="right" unicode="&#59561;" d="M386.84619271 132.25897197999996a24.51957612 24.51957612 0 0 1 16.21212218 6.29352569L653.49028959 362.24957517999997A30.00753053 30.00753053 0 0 1 663.10679683 384.60417849c0 8.65989136-3.52437441 16.91699708-9.61650724 22.30425507l-249.3746624 222.53906877c-11.07660522 9.86824829-27.38942386 7.90466827-36.25070799-4.43064212a30.86345004 30.86345004 0 0 1 3.92716001-40.27856446L596.09333519 384.55383027l-225.4089165-201.29212602a30.86345004 30.86345004 0 0 1-4.02785645-40.27856446A24.97270998 24.97270998 0 0 1 386.89654089 132.25897197999996z"  horiz-adv-x="1024" />

    
    <glyph glyph-name="left" unicode="&#59562;" d="M645.49739444 652.52376322a26.15421453 26.15421453 0 0 1-17.29293032-6.71309407L361.07702444 407.20045314A32.00803257 32.00803257 0 0 1 350.81941671 383.35554293999996c0-9.23721745 3.75933269-18.04479689 10.25760773-23.7912054l265.99963988-237.37500669c11.81504557-10.52613151 29.21538545-8.43164615 38.66742187 4.72601825a32.92101338 32.92101338 0 0 1-4.18897069 42.9638021L422.30044246 383.40924771000005l240.4361776 214.71160109a32.92101338 32.92101338 0 0 1 4.29638022 42.9638021A26.63755731 26.63755731 0 0 1 645.44368972 652.52376322z"  horiz-adv-x="1024" />

    
    <glyph glyph-name="tan" unicode="&#58882;" d="M512 881.792c274.56 0 497.792-223.16800001 497.792-497.792 0-274.56-223.16800001-497.792-497.792-497.792C237.44-113.79200000000003 14.208 109.44000000000005 14.208 384 14.208 658.56 237.44 881.792 512 881.792z m0-71.10400001A427.07200001 427.07200001 0 0 1 85.31199999 384 427.07200001 427.07200001 0 0 1 512-42.688000009999996 427.07200001 427.07200001 0 0 1 938.68800001 384 427.07200001 427.07200001 0 0 1 512 810.68800001z m35.584-628.15999999v-71.10400001H476.416v71.04h71.168z m0 474.04800001v-402.94400002H476.416V656.57600001h71.168z"  horiz-adv-x="1024" />

    
    <glyph glyph-name="link" unicode="&#58887;" d="M944.82963 504.32L701.62963 741.451852a76.705185 76.705185 0 0 1-53.665186 21.807407 76.515556 76.515556 0 0 1-53.76-21.712592L512 661.333333l-82.10963 80.118519a77.558519 77.558519 0 0 1-107.52 0l-243.105185-237.037037a73.007407 73.007407 0 0 1 0-105.14963l132.740741-135.585185L455.111111 26.54814799999997a76.61037 76.61037 0 0 1 53.854815-21.807407c1.042963 0 1.896296 0.568889 2.939259 0.568889s1.896296-0.568889 2.939259-0.568889a76.705185 76.705185 0 0 1 54.044445 21.807407l243.01037 237.037037a72.912593 72.912593 0 0 1 12.420741 18.10963l120.50963 117.57037a72.817778 72.817778 0 0 1 22.281481 52.622222 72.817778 72.817778 0 0 1-22.281481 52.432593zM779.946667 312.225185l-39.253334-37.925926-53.76 52.622222a27.306667 27.306667 0 0 1-37.925926 0 25.78963 25.78963 0 0 1 0-36.977777l53.76-52.622223L669.013333 203.851852l-53.76 52.622222a27.306667 27.306667 0 0 1-37.925926 0 25.78963 25.78963 0 0 1 0-36.977778l53.854815-52.622222-34.891852-34.038518-53.76 52.622222a27.306667 27.306667 0 0 1-37.925926 0 25.78963 25.78963 0 0 1 0-36.977778l53.76-52.622222-33.374814-32.616297a21.997037 21.997037 0 0 0-12.8-5.878518 22.565926 22.565926 0 0 0-12.98963 5.878518L117.191111 436.242963a21.522963 21.522963 0 0 0-6.637037 15.644444 21.902222 21.902222 0 0 0 6.542222 15.54963L360.296296 704.568889a23.134815 23.134815 0 0 0 31.952593 0L474.074074 624.260741s-67.602963-69.025185-91.022222-93.202963c-18.394074-18.962963 3.413333-43.045926 3.413333-43.045926a120.32 120.32 0 0 1 167.348148 0l29.961482 29.202963 190.388148-185.457778a21.712593 21.712593 0 0 0 6.542222-15.644444 23.22963 23.22963 0 0 0-0.758518-3.887408zM906.903704 436.148148l-84.764445-82.488889a70.447407 70.447407 0 0 1-10.334815 15.075556L620.373333 555.614815a25.41037 25.41037 0 0 1-5.878518 28.444444 27.306667 27.306667 0 0 1-37.925926 0l-60.491852-59.164444a67.318519 67.318519 0 0 0-78.317037-9.955556l160.237037 156.254815 33.659259 32.805926a23.04 23.04 0 0 0 31.857778 0l243.01037-237.037037a21.522963 21.522963 0 0 0 6.542223-15.54963 20.195556 20.195556 0 0 0-6.162963-15.265185z"  horiz-adv-x="1024" />

    


  </font>
</defs>
</svg>
